<?xml version="1.0" standalone="no"?>
<!DOCTYPE svg PUBLIC "-//W3C//DTD SVG 1.1//EN" "http://www.w3.org/Graphics/SVG/1.1/DTD/svg11.dtd" >
<svg xmlns="http://www.w3.org/2000/svg">
<metadata>Generated by IcoMoon</metadata>
<defs>
<font id="adlasz" horiz-adv-x="1024">
<font-face units-per-em="1024" ascent="960" descent="-64" />
<missing-glyph horiz-adv-x="1024" />
<glyph unicode="&#x20;" horiz-adv-x="512" d="" />
<glyph unicode="&#xe900;" glyph-name="lijn" d="M7.143-22.379l975.239 975.238 34.48-34.48-975.239-975.238-34.48 34.48z" />
<glyph unicode="&#xe901;" glyph-name="arrow-right" d="M768 448l-512-512v1024l512-512z" />
<glyph unicode="&#xe902;" glyph-name="chevron-down" d="M632.314 236.595c-32.068-31.606-75.287-49.324-120.314-49.324s-88.246 17.718-120.317 49.324l-0.295 0.291-374.726 374.728c-22.216 22.216-22.216 58.237 0 80.453s58.236 22.217 80.453 0l374.554-374.554c10.77-10.552 25.248-16.464 40.33-16.464s29.559 5.912 40.329 16.463l374.556 374.556c22.215 22.217 58.237 22.217 80.452 0s22.215-58.237 0-80.453l-375.023-375.019z" />
<glyph unicode="&#xe903;" glyph-name="chevron-left" d="M276.88 327.686c-31.606 32.068-49.324 75.287-49.324 120.314s17.718 88.246 49.324 120.317l0.291 0.295 374.728 374.726c22.216 22.216 58.237 22.216 80.453 0s22.216-58.236 0-80.453l-374.555-374.554c-10.551-10.77-16.464-25.248-16.464-40.33s5.912-29.559 16.463-40.329l374.556-374.556c22.216-22.215 22.217-58.237 0-80.452s-58.237-22.215-80.453 0l-375.019 375.023z" />
<glyph unicode="&#xe904;" glyph-name="chevron-right" d="M699.676 568.317c31.606-32.071 49.324-75.29 49.324-120.317s-17.718-88.246-49.324-120.314l-0.291-0.296-374.728-374.727c-22.217-22.215-58.237-22.215-80.453 0s-22.217 58.237 0 80.452l374.554 374.555c10.552 10.77 16.464 25.248 16.464 40.33s-5.912 29.559-16.463 40.329l-374.556 374.556c-22.217 22.217-22.216 58.237 0 80.453s58.236 22.216 80.453 0l375.019-375.021z" />
<glyph unicode="&#xe905;" glyph-name="chevron-up" d="M402.49 648.278c30.382 29.943 71.326 46.728 113.984 46.728s83.601-16.785 113.981-46.728l0.28-0.275 355.005-355.006c21.046-21.047 21.046-55.172 0-76.218s-55.172-21.048-76.218 0l-354.843 354.841c-10.202 9.996-23.917 15.597-38.205 15.597s-28.004-5.601-38.207-15.596l-354.842-354.842c-21.047-21.048-55.171-21.048-76.218 0s-21.047 55.172 0 76.218l355.283 355.281z" />
<glyph unicode="&#xe906;" glyph-name="clock" d="M0 448c0 282.778 229.222 512 512 512s512-229.222 512-512c0-282.778-229.222-512-512-512s-512 229.222-512 512zM563.2 652.8c0 13.579-5.395 26.602-14.997 36.204s-22.626 14.996-36.203 14.996c-13.577 0-26.601-5.394-36.203-14.996s-14.997-22.625-14.997-36.204v-204.8c0.003-13.577 5.399-26.601 15.002-36.198l153.6-153.6c9.658-9.328 22.589-14.485 36.012-14.369 13.428 0.116 26.27 5.502 35.761 14.992s14.876 22.333 14.992 35.761c0.116 13.424-5.041 26.354-14.369 36.012l-138.598 138.598v183.603z" />
<glyph unicode="&#xe907;" glyph-name="location" d="M428.077 33.458c26.98-22.261 55.118-42.607 83.923-62.464 28.868 19.594 56.868 40.435 83.923 62.464 45.101 37.033 87.543 77.187 127.021 120.164 91.002 99.506 189.752 243.757 189.752 405.682 0 52.62-10.365 104.725-30.502 153.34s-49.651 92.787-86.857 129.995c-37.211 37.208-81.381 66.723-129.995 86.86-48.618 20.137-100.722 30.501-153.342 30.501s-104.725-10.364-153.34-30.501c-48.615-20.137-92.787-49.652-129.995-86.86s-66.723-81.38-86.86-129.995c-20.137-48.615-30.501-100.719-30.501-153.34 0-161.926 98.749-306.131 189.752-405.682 39.474-42.995 81.919-83.118 127.021-120.164zM512 414.609c-38.376 0-75.179 15.244-102.315 42.38s-42.38 63.94-42.38 102.315c0 38.376 15.245 75.179 42.38 102.315s63.94 42.38 102.315 42.38c38.376 0 75.179-15.245 102.315-42.38s42.38-63.94 42.38-102.315c0-38.376-15.244-75.179-42.38-102.315s-63.94-42.38-102.315-42.38z" />
<glyph unicode="&#xe908;" glyph-name="mail" d="M0 613.425v-418.378c0-38.797 15.412-76.006 42.846-103.437 27.434-27.435 64.642-42.846 103.439-42.846h731.427c38.797 0 76.006 15.411 103.441 42.846 27.435 27.43 42.846 64.64 42.846 103.437v418.378l-435.345-267.85c-23.053-14.182-49.587-21.692-76.655-21.692s-53.602 7.509-76.655 21.692l-435.345 267.85zM1024 699.343v7.704c0 38.797-15.411 76.006-42.846 103.439s-64.644 42.846-103.441 42.846h-731.427c-38.797 0-76.006-15.412-103.439-42.846s-42.846-64.642-42.846-103.439v-7.704l473.673-291.497c11.529-7.091 24.794-10.846 38.327-10.846s26.799 3.755 38.327 10.846l473.673 291.497z" />
<glyph unicode="&#xe909;" glyph-name="phone" d="M205.938 516.834c81.92-160.994 213.902-292.407 374.896-374.895l125.158 125.154c15.36 15.36 38.114 20.48 58.027 13.653 63.714-21.047 132.548-32.427 203.093-32.427 31.287 0 56.887-25.6 56.887-56.887v-198.545c0-31.287-25.6-56.887-56.887-56.887-534.187 0-967.113 432.926-967.113 967.111 0 31.289 25.6 56.889 56.889 56.889h199.111c31.289 0 56.889-25.6 56.889-56.889 0-71.111 11.378-139.378 32.427-203.093 6.258-19.911 1.707-42.098-14.222-58.027l-125.155-125.157z" />
<glyph unicode="&#xe90a;" glyph-name="search" d="M435.163 960c-69.397-0.006-137.786-16.607-199.462-48.42s-114.85-77.912-155.086-134.454c-40.236-56.542-66.367-121.887-76.212-190.581s-3.121-138.75 19.613-204.317c22.734-65.567 60.819-124.749 111.076-172.6 50.257-47.857 111.23-83 177.832-102.497s136.9-22.784 205.031-9.59c68.132 13.194 132.116 42.491 186.624 85.448l186.982-186.982c9.656-9.329 22.589-14.49 36.014-14.372s26.266 5.504 35.758 14.996c9.492 9.492 14.879 22.333 14.996 35.758 0.113 13.425-5.048 26.358-14.372 36.014l-186.982 186.982c50.586 64.174 82.079 141.292 90.885 222.529 8.801 81.238-5.443 163.313-41.108 236.833s-91.305 135.513-160.558 178.886c-69.253 43.373-149.32 66.372-231.031 66.367zM102.363 524.8c0 88.264 35.063 172.913 97.475 235.325s147.061 97.475 235.325 97.475c88.265 0 172.914-35.063 235.326-97.475s97.475-147.061 97.475-235.325c0-88.264-35.062-172.913-97.475-235.325s-147.062-97.475-235.326-97.475c-88.264 0-172.913 35.062-235.325 97.475s-97.475 147.062-97.475 235.325z" />
<glyph unicode="&#xe90b;" glyph-name="book" horiz-adv-x="922" d="M154.214 140.8h767.386v716.8c0 27.158-10.788 53.204-29.993 72.408s-45.251 29.992-72.407 29.992h-665.6c-61.747 0-153.6-40.909-153.6-153.6v-716.8c0-112.691 91.853-153.6 153.6-153.6h768v102.4h-767.386c-23.654 0.614-51.814 9.984-51.814 51.2s28.16 50.586 51.814 51.2zM256 755.2h460.8v-102.4h-460.8v102.4z" />
<glyph unicode="&#xe90c;" glyph-name="check" horiz-adv-x="1446" d="M491.006-43.887l-469.835 446.284c-28.227 26.812-28.227 70.284 0 97.099l102.22 97.099c28.227 26.814 73.997 26.814 102.224 0l316.504-300.635 677.918 643.931c28.226 26.812 73.993 26.812 102.219 0l102.219-97.099c28.232-26.812 28.232-70.284 0-97.099l-831.245-789.586c-28.23-26.811-73.997-26.811-102.224 0.006z" />
<glyph unicode="&#xe90d;" glyph-name="lightbulb" horiz-adv-x="768" d="M384-64c-28.16 0-52.258 10.020-72.294 30.054s-30.071 44.15-30.106 72.346h204.8c0-28.16-10.018-52.275-30.054-72.346s-44.151-30.090-72.346-30.054zM230.4 89.6c-14.506 0-26.658 4.915-36.454 14.746s-14.711 21.98-14.746 36.454c-0.034 14.474 4.881 26.624 14.746 36.454s22.016 14.746 36.454 14.746h307.2c14.505 0 26.675-4.915 36.506-14.746s14.73-21.98 14.694-36.454c-0.036-14.474-4.951-26.639-14.746-36.506s-21.949-14.761-36.454-14.694h-307.2zM192 243.2c-58.88 34.985-105.609 81.92-140.186 140.8s-51.848 122.88-51.814 192c0 106.666 37.342 197.325 112.026 271.974s165.342 111.991 271.974 112.026c106.633 0.034 197.309-37.308 272.026-112.026s112.041-165.376 111.974-271.974c0-69.12-17.27-133.12-51.814-192s-81.27-105.815-140.186-140.8h-384z" />
<glyph unicode="&#xe90e;" glyph-name="shield" d="M505.431 959.642l5.837 0.358 6.042-0.358 3.021-0.41 3.123-0.666 5.683-1.741c3.922-1.45 7.654-3.376 11.11-5.734l5.325-4.198 13.056-11.162c103.286-85.789 233.825-131.855 368.077-129.894l17.51 0.512c11.448 0.522 22.738-2.811 32.067-9.467s16.159-16.249 19.389-27.244c25.16-85.585 32.86-175.354 22.641-263.973-10.22-88.621-38.149-174.279-82.13-251.893-43.976-77.609-103.107-145.592-173.88-199.9-70.769-54.308-151.731-93.834-238.080-116.234-8.428-2.186-17.275-2.186-25.703 0-86.353 22.395-167.323 61.916-238.099 116.224-70.776 54.303-129.912 122.286-173.896 199.895-43.984 77.614-71.917 163.277-82.139 251.899s-2.526 178.394 22.633 263.982c3.231 10.995 10.058 20.588 19.387 27.244s20.621 9.989 32.069 9.467c140.158-6.407 277.661 39.732 385.587 129.382l13.466 11.52 4.915 3.84c3.455 2.358 7.186 4.284 11.11 5.734l5.734 1.741c2.007 0.481 4.093 0.84 6.144 1.075z" />
<glyph unicode="&#xe90f;" glyph-name="calendar" horiz-adv-x="977" d="M977.455 456.844v-391.345c0-29.654-11.441-58.098-31.809-79.067s-47.993-32.749-76.795-32.749h-760.244c-28.804 0-56.428 11.781-76.796 32.749s-31.81 49.413-31.81 79.067v391.345h977.455zM705.941 960c14.401 0 28.211-5.89 38.395-16.375s15.905-24.705 15.905-39.532v-55.907h108.609c28.802 0 56.427-11.78 76.795-32.749s31.809-49.409 31.809-79.064v-167.719h-977.455v167.719c0 29.655 11.442 58.095 31.81 79.064s47.992 32.749 76.796 32.749h108.606v55.907c0 14.827 5.721 29.047 15.905 39.532s23.996 16.375 38.398 16.375c14.402 0 28.214-5.89 38.398-16.375s15.905-24.705 15.905-39.532v-55.907h325.818v55.907c0 14.827 5.72 29.047 15.905 39.532s23.994 16.375 38.4 16.375z" />
<glyph unicode="&#xe910;" glyph-name="case" d="M423.68 959.741c-26.595-1.633-52.187-10.875-73.804-26.652-21.616-15.777-38.367-37.441-48.308-62.475-1.638-4.096-3.072-8.555-5.018-14.466-4.25-11.562-14.080-24.835-27.75-35.412-1.536-1.175-3.072-2.281-4.608-3.318-110.285-0.156-167.834-2.23-207.514-34.894-8.158-6.706-15.565-14.207-22.221-22.502-34.458-42.879-34.458-106.393-34.458-233.419 0-32.252 0-48.325 7.68-60.924 1.512-2.454 3.225-4.78 5.12-6.945 9.677-11.096 24.934-15.711 55.398-24.993l239.002-72.587v41.479c0 27.502 10.789 53.877 29.992 73.326 19.204 19.445 45.25 30.369 72.408 30.369h204.8c27.158 0 53.204-10.924 72.408-30.369 19.204-19.449 29.992-45.824 29.992-73.326v-41.479l239.002 72.587c30.464 9.282 45.67 13.897 55.398 24.993 1.894 2.165 3.61 4.491 5.12 6.945 7.68 12.599 7.68 28.672 7.68 60.924 0 127.026 0 190.54-34.458 233.419-6.623 8.261-14.029 15.762-22.221 22.502-39.629 32.716-97.229 34.738-207.462 34.894-1.536 1.037-3.072 2.143-4.608 3.318-13.722 10.577-23.501 23.798-27.802 35.412l-0.154 0.519c-1.792 5.599-3.277 9.903-4.864 13.895-9.933 25.044-26.683 46.719-48.296 62.505-21.617 15.786-47.214 25.036-73.816 26.674-4.301 0.259-8.806 0.259-14.592 0.259h-147.405c-5.837 0-10.342 0-14.592-0.259zM656.282 826.854c1.196-3.215 2.56-6.36 4.096-9.436h-296.806c1.468 3.111 2.834 6.256 4.096 9.436v0.155l0.256 0.519 0.512 1.245 0.154 0.518 0.102 0.259 0.41 1.245 0.102 0.311 0.154 0.415 0.102 0.363 0.102 0.311c1.997 6.014 2.611 7.933 3.226 9.384 4.513 11.385 12.123 21.238 21.95 28.416 9.823 7.177 21.46 11.383 33.551 12.129 1.638 0.104 3.686 0.104 11.008 0.104h145.306c7.322 0 9.37 0 11.008-0.104 24.678-1.555 46.285-17.317 55.552-40.545 0.512-1.452 1.178-3.266 3.174-9.384l0.102-0.311 0.102-0.363 0.154-0.415 0.102-0.311 0.41-1.245 0.102-0.259 0.205-0.518 0.205-0.622 0.256-0.622 0.205-0.519 0.102-0.155zM614.4 428.559c6.791 0 13.301-2.732 18.103-7.596 4.802-4.86 7.497-11.454 7.497-18.33v-112.095c0-5.179-1.532-10.236-4.4-14.523-2.864-4.29-6.93-7.611-11.677-9.534l-35.84-14.519c-48.841-19.789-103.325-19.789-152.166 0l-35.84 14.519c-4.747 1.924-8.814 5.244-11.677 9.534-2.867 4.286-4.4 9.344-4.4 14.523v112.095c0 6.875 2.695 13.469 7.497 18.33 4.802 4.864 11.312 7.596 18.103 7.596h204.8zM307.763 279.804c1.929-18.79 8.891-36.692 20.134-51.771s26.341-26.756 43.661-33.777l35.84-14.519c67.149-27.205 142.054-27.205 209.203 0l35.84 14.519c17.32 7.022 32.417 18.699 43.663 33.777 11.242 15.078 18.205 32.98 20.133 51.771l256.256 77.824c-1.536-161.456-10.854-310.206-67.174-360.861-67.482-60.767-176.128-60.767-393.318-60.767s-325.837 0-393.318 60.767c-56.32 50.655-65.638 199.406-67.174 360.861l256.205-77.875z" />
<glyph unicode="&#xe911;" glyph-name="linkedin" horiz-adv-x="1073" d="M225.134 820.306c-0.015-28.737-11.889-56.292-33.010-76.602s-49.759-31.712-79.613-31.698c-29.855 0.014-58.481 11.444-79.581 31.774s-32.945 47.896-32.93 76.634c0.015 28.737 11.889 56.292 33.010 76.602s49.759 31.712 79.613 31.698c29.855-0.014 58.481-11.444 79.58-31.775s32.945-47.896 32.93-76.633zM228.51 631.771h-225.133v-678.295h225.133v678.295zM584.221 631.771h-224.007v-678.295h221.755v355.942c0 198.287 268.473 216.707 268.473 0v-355.942h222.32v429.622c0 334.272-397.361 321.812-490.793 157.656l2.253 91.018z" />
<glyph unicode="&#xe912;" glyph-name="twitter" horiz-adv-x="1078" d="M848.842 925.421h165.322l-361.095-410.923 424.825-559.182h-332.601l-260.511 339.203-298.105-339.203h-165.389l386.223 439.56-407.512 530.545h341.086l235.453-309.965 272.303 309.965zM790.905 53.798h91.621l-591.293 778.292h-98.223l597.895-778.292z" />
<glyph unicode="&#xe913;" glyph-name="menu" horiz-adv-x="2048" d="M2048 846.222h-2048v113.778h2048v-113.778zM2048 391.111h-2048v113.778h2048v-113.778zM2048-64h-2048v113.778h2048v-113.778z" />
<glyph unicode="&#xe914;" glyph-name="close" d="M931.149-64l-418.821 419.21-418.818-419.21-93.51 93.45 419.478 418.55-419.478 418.55 93.51 93.45 418.818-419.208 418.821 418.55 92.851-92.792-418.821-418.55 418.821-418.55-92.851-93.45z" />
<glyph unicode="&#xe915;" glyph-name="persoonlijk" horiz-adv-x="901" d="M300.373 64.156h-200.249c-27.534 0-51.097 9.74-70.688 29.217s-29.403 42.918-29.437 70.32v696.769c0 27.373 9.812 50.798 29.437 70.274s43.187 29.231 70.688 29.264h700.873c27.533 0 51.11-9.755 70.738-29.264 19.624-19.509 29.417-42.934 29.385-70.274v-696.769c0-27.369-9.798-50.811-29.385-70.32-19.591-19.509-43.172-29.25-70.738-29.217h-200.249l-115.143-114.467c-5.009-4.977-10.433-8.511-16.273-10.6-5.841-2.093-12.095-3.121-18.772-3.088s-12.931 1.061-18.772 3.088c-5.841 2.023-11.264 5.554-16.273 10.6l-115.141 114.467zM450.56 462.307c48.394 0 89.694 17.007 123.904 51.016s51.315 75.068 51.315 123.178c0 48.11-17.105 89.17-51.315 123.179s-75.51 51.013-123.904 51.013c-48.393 0-89.695-17.005-123.904-51.013s-51.314-75.068-51.314-123.179c0-48.11 17.104-89.169 51.314-123.178s75.511-51.016 123.904-51.016zM100.124 163.693h700.873v57.238c-45.056 43.962-97.407 78.586-157.049 103.866-59.638 25.285-124.101 37.941-193.389 37.974-69.286 0.033-133.75-12.624-193.391-37.974s-111.989-59.97-157.045-103.866v-57.238z" />
<glyph unicode="&#xe916;" glyph-name="samenwerken" horiz-adv-x="1067" d="M699.998 793.333c0-44.203-17.557-86.595-48.815-117.851-31.253-31.256-73.647-48.815-117.85-48.815s-86.596 17.559-117.851 48.815c-31.256 31.256-48.815 73.649-48.815 117.851s17.559 86.595 48.815 117.851c31.255 31.256 73.649 48.815 117.851 48.815s86.596-17.559 117.85-48.815c31.258-31.256 48.815-73.649 48.815-117.851zM1033.335 760c0-35.362-14.050-69.276-39.053-94.281-25.007-25.005-58.918-39.052-94.281-39.052-35.366 0-69.278 14.048-94.285 39.052-25.003 25.005-39.049 58.919-39.049 94.281s14.046 69.276 39.049 94.281c25.007 25.005 58.918 39.052 94.285 39.052 35.362 0 69.274-14.048 94.281-39.052 25.003-25.005 39.053-58.919 39.053-94.281zM166.667 626.667c35.362 0 69.276 14.048 94.281 39.052s39.052 58.919 39.052 94.281c0 35.362-14.048 69.276-39.052 94.281s-58.919 39.052-94.281 39.052c-35.362 0-69.276-14.048-94.281-39.052s-39.052-58.919-39.052-94.281c0-35.362 14.048-69.276 39.052-94.281s58.919-39.052 94.281-39.052zM266.667 476.668c0 45.999 37.333 83.332 83.333 83.332h366.668c45.999 0 83.332-37.333 83.332-83.332v-274.001c0-70.724-28.096-138.551-78.106-188.561s-117.837-78.106-188.561-78.106c-70.724 0-138.552 28.096-188.562 78.106s-78.105 117.837-78.105 188.561v274.001zM200 476.668c0 30.865 9.333 59.466 25.267 83.332h-141.934c-46 0-83.333-37.333-83.333-83.332v-207.334c-0.003-28.54 6.103-56.751 17.907-82.739 11.804-25.984 29.033-49.143 50.53-67.917 21.497-18.778 46.763-32.734 74.101-40.934s56.114-10.453 84.396-6.609c-17.806 41.562-26.97 86.315-26.933 131.533v274.001zM866.667 202.667c0-46.669-9.6-91.2-26.935-131.533 8.802-1.199 17.779-1.801 26.935-1.801 53.043 0 103.915 21.073 141.423 58.577 37.504 37.508 58.577 88.38 58.577 141.423v207.334c0 45.999-37.333 83.332-83.332 83.332h-141.935c16-23.866 25.267-52.467 25.267-83.332v-274.001z" />
</font>
</defs>
</svg>
